#TITLE:Will O' The Wisp;
#SUBTITLE:;
#ARTIST:Banya;
#TITLETRANSLIT:;
#SUBTITLETRANSLIT:;
#ARTISTTRANSLIT:;
#CREDIT:;
#BANNER:willo.png;
#BACKGROUND:willo-bg.png;
#LYRICSPATH:;
#CDTITLE:!a0Title.png;
#MUSIC:willo.mp3;
#OFFSET:-5.205;
#SAMPLESTART:69.919;
#SAMPLELENGTH:9.131;
#SELECTABLE:YES;
#BPMS:0.000=210.000;
#STOPS:;
#BGCHANGES:;
// cache tags:
#FIRSTBEAT:0.000;
#LASTBEAT:292.000;
#SONGFILENAME:Songs/nhac/willo/willo.sm;
#HASMUSIC:1;
#HASBANNER:1;
#MUSICLENGTH:94.066;
// end cache tags

//---------------dance-single - ----------------
#NOTES:
     dance-single:
     :
     Hard:
     11:
     1.000,1.000,1.000,0.032,0.383,466.000,200.000,3.000,0.000,0.000:
0011
0011
0100
0010
1100
0101
0000
0000
,
1100
1100
0010
0001
0110
1100
0000
0000
,
0110
0110
1000
0100
0011
1010
0000
0000
,
0011
0011
1000
0100
1001
1100
0000
0000
,
1001
1001
0100
0010
0101
0110
0000
0000
,
0101
0101
0010
1000
0110
0101
0000
0000
,
0110
0110
0001
0100
1010
0011
0000
0000
,
1010
1010
0001
0100
1001
0011
0000
0000
,
1001
1001
0100
0010
1100
0101
0000
0000
,
1100
1100
0010
0001
1010
1001
0000
0000
,
1010
1010
0100
0010
1001
1100
0000
0000
,
1001
1001
0010
1000
0101
0110
0000
0000
,
0101
0101
0010
1000
0110
1010
0000
0000
,
0110
0110
0001
1000
0101
0110
0000
0000
,
0101
0101
0010
0100
1010
1001
0000
0000
,
1010
1010
0100
0010
1001
1010
0000
0000
,
0001
0110
0110
0000
0010
1100
1100
0000
,
1000
0110
0110
0000
0100
0011
0011
0000
,
0110
1100
0110
1100
0110
1100
0110
1100
,
1001
1001
1001
1001
1001
1001
1001
2002
,
0000
0000
0000
0000
0000
3003
0000
0000
,
0020
0000
0000
0030
,
0100
1010
0100
1010
0000
0101
0000
0000
,
0100
0011
0100
0011
0000
1100
0000
0000
,
0010
1100
0010
1100
0000
0011
0000
0000
,
0010
0101
0010
0101
0000
1010
0000
0000
,
0001
0001
0001
0001
0101
0000
1001
0000
,
1000
1000
1000
1000
1100
0010
1100
0000
,
0001
0001
0001
0001
0101
0000
1001
0000
,
1000
1000
1000
1000
1100
0010
1100
0000
,
1000
0000
1000
0000
1000
0000
1100
0000
0000
0000
0000
1100
0000
0000
0000
0000
,
0010
0000
0010
0000
0010
0000
0110
0000
0000
0000
0000
0110
0000
0000
0000
0000
,
0001
0000
0001
0000
0001
0000
0101
0000
0000
0000
0000
0101
0000
0000
0000
0000
,
1000
1000
1000
1000
1100
0010
1100
0000
,
0001
0001
0001
0001
0101
0000
1001
0000
,
1000
1000
1000
1000
1100
0010
1100
0000
,
1000
0001
1000
0001
1000
0001
1000
0001
,
1000
0000
0001
0000
1000
0000
0001
0000
1000
0001
1000
0001
1000
0001
1000
0001
,
1000
0001
1000
0001
1000
0001
1000
0001
1000
0001
1000
0001
1000
0001
1000
0001
,
1000
0001
1000
0001
1000
0001
1000
0001
1000
0001
1000
0001
1000
0001
1000
0001
,
0000
0000
0000
0000
,
0000
0000
0000
0000
,
0000
0000
0000
0000
,
0000
0000
0000
0000
,
0000
0000
0000
0000
,
0000
0000
0000
0000
,
0000
0000
0000
0000
,
0000
0000
0000
0000
,
0000
0000
0000
0000
0000
0000
0000
0000
0000
0000
0000
0010
1000
0010
1000
0010
,
1000
0010
1000
0001
0100
0001
0100
0001
0100
0001
0100
0001
1000
0001
1000
0001
,
1000
0001
1000
0010
1000
0010
1000
0010
1000
0000
0110
0000
0110
0000
1000
0010
,
0100
0001
0010
0100
1000
0010
0100
0001
0010
0000
1001
0000
1001
0000
0010
0001
,
1000
0010
0100
0001
1000
0100
0010
0001
0100
0000
1010
0000
1010
0000
0100
0001
,
1000
0100
0010
0100
1000
0010
0100
0001
0010
0000
1100
0000
1100
0000
0001
1000
,
0010
0100
0001
0010
0100
1000
0010
0100
0010
0000
0101
0000
0101
0000
0010
1000
,
0001
0100
0010
1000
0100
0010
0001
0100
0010
0000
1001
0000
1001
0000
0100
0010
,
1000
0100
0010
0001
0100
0010
1000
0100
0010
0000
0000
0000
1010
0000
1010
0000
,
0001
1000
0101
0011
0000
0000
0101
0101
,
1000
0010
1001
0101
0000
0000
1001
1001
,
0100
0001
1010
1100
0000
0000
1010
1010
,
0100
0001
0110
0101
0000
0000
0110
0110
,
0001
1000
0011
1001
0000
0000
0011
0011
,
1000
0100
1001
0011
0000
0000
1001
1001
,
0100
0001
1100
1010
0000
0000
1100
1100
,
0010
0001
0110
1010
0000
0000
0110
0110
,
0001
1000
0101
0011
0000
0000
0101
0101
,
1000
0010
1100
0110
0000
0000
1001
1001
,
0010
0100
0011
1010
0000
0000
0011
0011
,
0100
0010
0101
1001
0000
0000
0101
0110
,
0101
0000
1010
0110
1010
0000
0101
0110
,
0101
0000
1010
0110
1010
0000
1001
0000
,
1001
0000
1001
0000
1001
0000
1100
1100
,
0011
0000
0011
0000
1000
0100
1000
0100
0010
0001
0010
0001
0000
0000
0000
0000
;

//---------------dance-single - ----------------
#NOTES:
     dance-single:
     :
     Easy:
     1:
     0.000,0.000,0.000,0.000,0.000,0.000,0.000,0.000,0.000,0.000:
0000
0000
0000
0000
;

//---------------dance-single - ----------------
#NOTES:
     dance-single:
     :
     Challenge:
     1:
     1.000,1.000,1.000,1.000,1.000,1411.000,182.000,143.000,0.000,120.000:
1111
1000
1000
1000
1000
1000
1000
1000
1000
1000
1000
1000
,
1111
0100
0100
0100
0100
0100
0100
0100
0100
0100
0100
0100
,
1111
0010
0010
0010
0010
0010
0010
0010
0010
0010
0010
0010
,
1111
0001
0001
0001
0001
0001
0001
0001
0001
0001
0001
0001
,
1111
0110
1010
0101
0011
1100
0101
1100
0110
1001
1100
0011
,
1111
0110
1001
0110
1001
0110
1001
0110
1001
0110
1001
0110
,
1111
1100
0101
0011
1100
1010
0101
0011
1100
1010
0101
1010
,
1111
0011
1100
1010
0101
0011
1100
1010
0101
0011
1100
0011
,
1111
1110
0111
1110
0111
1110
0111
1110
0111
1110
0111
1110
,
1111
1101
1011
1101
1011
1101
1011
1101
1011
1101
1011
1101
,
1111
0111
1110
1011
1101
1110
0111
1101
1011
1100
0011
1111
,
1111
1111
1100
0011
1100
0101
1010
1001
1100
0011
1100
0011
,
1111
0011
1100
0111
1110
1011
1101
1011
1101
1110
0111
1101
,
1111
1000
0010
0100
0001
0010
1000
0001
0100
0010
0001
1000
0100
0010
0001
1000
,
1111
0010
0100
0001
1000
0100
0010
0001
1000
0100
0010
0001
0100
0010
0001
1000
,
1111
0100
0010
0001
0010
0100
0001
1000
0100
1000
0010
0100
0001
1000
0010
0100
,
1111
1000
0100
0001
0010
0100
1000
0001
0010
0100
1000
0100
1111
0010
0001
0100
1000
0100
0010
0001
0010
0100
1000
0001
,
1111
0100
0010
0001
1000
0100
0010
0001
0010
0100
1000
0010
1111
0001
0010
0100
1000
0001
1000
0100
0010
0001
0010
0100
,
1111
1000
0100
0010
0001
0010
0100
1000
1111
0001
0010
0100
1000
0001
0100
1000
1111
0001
0100
0010
1000
0001
0100
0010
1111
1000
0100
0010
0001
0010
0100
1000
,
1111
1000
0100
0010
0001
1000
1111
0001
0010
0100
1000
0001
1111
0010
0100
1000
0001
0010
1111
0100
0010
0001
1000
0100
1111
0010
0001
0100
1000
0010
1111
0100
2000
3002
0013
1000
1111
0010
0100
1000
0001
0100
1111
0010
0100
1000
0001
0010
,
1111
1000
0200
0320
0031
0020
0230
2300
3002
2003
3200
0310
0002
1003
0100
0010
,
0001
0010
0100
1000
0001
0010
0100
2000
3002
0023
0230
2300
3002
1003
0200
0310
,
0001
1000
0200
0310
0001
0010
0100
1000
0002
0103
0020
1030
0001
0100
0020
0031
,
1000
0100
0010
0001
0100
1000
0001
0010
0100
1000
0001
0020
0230
2300
3001
0100
,
0010
0001
0010
0100
1000
0001
0010
0100
1000
0001
1000
0001
1000
0100
0010
0002
,
0013
0100
1000
0002
1003
0001
1000
0100
0010
0001
0010
0100
1000
0001
1000
0001
,
1000
0001
1000
0200
0310
0001
0100
0010
0100
0010
0100
0020
0130
0010
0200
0310
,
1000
0001
2000
3001
2000
3001
1000
0001
1000
0001
1000
0001
1000
0100
1000
0100
,
1000
0100
1000
0100
1000
0100
0010
0100
0020
0130
0010
0100
0010
0001
0010
0002
,
0103
0001
0200
0310
0100
0010
1000
0010
1000
0100
1000
0100
0010
0100
0010
0002
,
0013
0001
0100
0001
0100
0010
0100
0010
0100
0010
1000
0010
1000
0010
1000
0010
,
1000
0100
1000
0100
0010
0001
0010
0001
1000
0100
1000
0100
0010
0001
0010
0001
,
1000
0002
1003
0001
1000
0001
1000
0200
0310
0100
0010
0100
0010
0200
0320
0230
,
0320
0130
2000
3100
1000
0100
1000
0100
1000
0100
0010
0100
0010
0100
0010
0100
,
0010
0001
0010
0001
0010
0001
0020
0031
1000
0001
1000
0001
1000
0100
1000
0100
,
1000
0100
0010
0100
0010
0100
0010
0100
0010
0002
0013
0001
0020
0031
0010
0100
,
1111
1000
0100
0010
0001
1000
0100
0010
0001
1000
0100
0010
0002
1003
0100
0010
0001
1000
0100
0010
0001
1000
0100
0010
0001
1000
0100
0020
0032
2003
3100
0020
,
0031
1000
1100
1110
0101
1000
0100
0010
0001
1000
0100
0010
0001
1000
0100
0010
0001
1000
0100
0010
0001
1000
0100
0100
0010
0001
1000
0100
0010
0001
1000
0100
0010
0001
1000
0100
0010
0001
1000
0100
0010
0001
1000
0100
0010
0002
1003
0100
0200
0310
0001
1000
0100
0010
0001
1000
0100
0010
0002
1003
0100
0010
0001
1000
,
0100
0010
0001
0010
0100
1000
0001
0010
0100
1000
0001
0010
0100
1000
0001
0010
0100
1000
0001
0010
0100
1000
0002
0023
0130
1000
0001
0020
0130
1000
0100
0010
0001
1000
0100
0010
0001
1000
0100
0010
0001
1000
0100
0010
0001
1000
0100
0010
0001
0010
0100
1000
0002
0023
0130
1000
0001
1000
0001
1000
0001
1000
0001
1000
,
0001
0010
0100
0010
0100
0010
0100
0020
1030
0010
1000
0010
1000
0001
1000
0001
1000
0001
0100
0001
0100
0001
0100
0010
0100
0010
0100
0010
0100
0010
1000
0010
1000
0010
2000
3001
1000
0001
1000
0001
1000
0001
1000
0001
0100
0001
0100
0001
0100
0001
0100
0001
1000
0001
1000
0001
1000
0001
1000
0001
1000
0001
1000
0001
,
1111
2222
0000
0000
0000
0000
0000
0000
,
0000
0000
0000
0000
,
0000
0000
0000
0000
0000
0000
0000
0330
,
3003
0000
0000
2020
0202
0000
0000
0000
,
0000
0000
0000
0000
,
3000
0333
0000
0000
2222
0000
0000
0000
,
0000
0000
0000
0000
,
0000
3030
0303
2222
0000
0000
0000
0000
,
0000
0000
0000
0000
0000
0000
0000
3333
,
0100
1000
0010
0001
1000
0100
0010
0002
1003
0200
0310
0002
1003
0200
0310
0001
0020
0130
1000
0001
1000
0001
1000
0200
0320
0032
2003
3100
0010
0002
1003
0100
,
0010
0002
1003
0100
0010
0001
0010
0100
1000
0001
0000
0010
2000
3002
0023
2030
3200
0310
0001
1000
0100
0020
0031
2000
3200
0320
0032
0013
0100
1000
0001
1000
,
0001
0100
0010
1000
0100
0002
0023
0230
2300
3002
0003
1000
0100
0010
0001
1000
0100
0010
0001
0010
0100
1000
0001
0010
0100
1000
0001
1000
0001
0010
0100
1000
,
0001
1000
0100
0010
0001
0010
0100
1000
0002
0013
0100
1000
0002
2003
3001
2000
3001
0100
0010
0001
0100
0010
0001
1000
0001
0100
0010
0001
1000
0100
0010
0001
,
1000
0100
0010
0001
1000
0100
0010
0001
0010
0100
0001
1000
0010
0100
0001
1000
0100
0010
1000
0001
0010
0100
0001
1000
0010
0100
0001
1000
0010
0100
0001
1000
,
0001
0010
0100
0001
1000
0200
0310
0002
1003
0100
0020
0031
0010
0100
1000
0001
0010
0100
0001
1000
0001
0010
0100
1000
0001
1000
0100
0010
2001
3000
0001
0100
,
0010
0001
1000
0100
0010
0001
0010
0100
1000
0200
0300
0010
0001
1000
0100
0010
0001
1000
0200
0310
0002
0013
0100
1000
0002
0013
0100
1000
0001
0020
0230
2300
,
3200
0310
0001
2000
3100
0020
0031
1000
0100
0010
0001
1000
0000
0100
0020
0031
2000
3200
0310
0002
0013
0100
1000
0100
1111
0000
1000
0000
0100
0000
0010
0000
,
0002
0013
0100
1000
0001
1000
0100
0010
0001
0020
0130
1000
1111
0010
0100
0001
,
1000
0100
0010
0001
0010
0100
1000
0001
0100
0020
0032
0013
1111
0010
0100
0001
,
1000
0100
0010
0002
0013
0100
1000
0001
0100
0010
0001
1000
1111
0010
0100
0001
,
1000
0100
0010
0001
0010
0100
2000
3002
0023
0230
1300
0001
1111
1000
0100
0010
,
0001
0010
0100
1000
0001
0020
0130
1000
0100
0010
0001
0010
1111
0100
0010
0001
,
1000
0100
0010
1000
0001
1000
0001
1000
0010
0100
0010
0100
1111
0100
0010
0100
,
0010
0100
0010
0001
1000
0010
0001
0100
1000
0001
0010
0100
1111
1000
0100
0010
,
0001
0010
0100
1000
0001
0010
0100
1000
0100
0010
0001
1000
1111
0010
0100
0002
,
1003
0100
0010
0001
0010
0100
1000
0001
1000
0001
1000
0001
1111
0010
0100
0001
,
1000
0100
0010
0001
0010
0100
1000
0100
0010
0001
1000
0001
1111
0010
0100
0001
,
2000
3200
0320
0032
0013
0200
1300
0002
1003
0100
0010
0001
1111
0010
0100
1000
,
0001
0000
0000
0010
0000
0000
0100
0000
0000
1000
0000
0000
0001
0000
0000
0010
0000
0000
0100
0000
0000
1000
0000
0000
0100
0000
0000
0020
0000
0000
0031
0000
0000
0010
0000
0000
1111
0000
1000
0000
0100
0000
0010
0000
0001
0000
0010
0000
,
0100
1000
0001
0100
0010
1000
1111
0010
0100
0001
1000
0100
0010
0001
0010
0100
1000
0100
1111
0010
0100
0001
1000
0100
,
0010
0000
0000
0000
0000
0000
0000
0000
0001
0000
0000
0000
0000
0000
0000
0000
0010
0000
0000
0000
0000
0000
0000
0000
0100
0000
0000
0000
0000
0000
0000
0000
1000
0000
0000
0000
0000
0000
0000
0000
0010
0000
0000
0000
0000
0000
0000
0000
1111
0000
0000
0000
0000
0000
0000
0000
0100
0000
0000
0000
0000
0000
0000
0000
0010
0000
0000
0000
0000
0000
0000
0000
0001
0000
0000
0000
0000
0000
0000
0000
0010
0000
0000
0000
0000
0000
0000
0000
0100
0000
0000
0000
0000
0000
0000
0000
1000
0000
0000
0000
0000
0000
0000
0000
0001
0000
0000
0000
0000
0000
0000
0000
0010
0000
0000
0000
0000
0000
0000
0000
0100
0000
0000
0000
0000
0000
0000
0000
1000
0000
0000
0000
0000
0000
0000
0000
0001
0000
0000
0000
0000
0000
0000
0000
1111
0000
0000
0000
0000
0000
1000
0000
0000
0000
0000
0000
0100
0000
0000
0000
0000
0000
0010
0000
0000
0000
0000
0000
0001
0000
0000
0000
0000
0000
0010
0000
0000
0000
0000
0000
0100
0000
0000
0000
0000
0000
1000
0000
0000
0000
0000
0000
,
1111
0000
0000
0000
0000
0000
0010
0000
0000
0000
0000
0000
0100
0000
0000
0000
0000
0000
1000
0000
0000
0000
0000
0000
0001
0000
0000
0000
0000
0000
0100
0000
0000
0000
0000
0000
0010
0000
0000
0000
0000
0000
1000
0000
0000
0000
0000
0000
1111
0000
0000
0000
0000
0000
0001
0000
0000
0000
0000
0000
0010
0000
0000
0000
0000
0000
0100
0000
0000
0000
0000
0000
1000
0000
0000
0000
0000
0000
0001
0000
0000
0000
0000
0000
0010
0000
0000
0000
0000
0000
0100
0000
0000
0000
0000
0000
1111
0000
0000
0000
0000
0000
0010
0000
0000
0000
0000
0000
0100
0000
0000
0000
0000
0000
0001
0000
0000
0000
0000
0000
1000
0000
0000
0000
0000
0000
0100
0000
0000
0000
0000
0000
0010
0000
0000
0000
0000
0000
0001
0000
0000
0000
0000
0000
1111
0000
0000
0000
1000
0000
0000
0000
0100
0000
0000
0000
0010
0000
0000
0000
0001
0000
0000
0000
0010
0000
0000
0000
1111
0000
0000
0010
0000
0000
0100
0000
0000
0001
0000
0000
1000
0000
0000
0100
0000
0000
0010
0000
0000
0001
0000
0000
,
1111
0010
0100
1000
1111
0000
0100
0010
1111
0010
0100
1000
1111
0010
0100
1000
1111
0010
0100
0001
1111
0010
0100
0001
1111
0010
0100
0001
1111
0010
0100
0001
1111
0010
0100
0001
1111
0010
0100
0001
1111
0010
0100
0001
1111
0010
0100
0001
1111
0010
0100
0001
1111
0010
0100
0001
1111
0010
0100
0001
1111
0010
0100
0001
,
1111
0000
0000
0000
;
